#TITLE:Helleluyah, God is Dead;
#SUBTITLE:by Young_editer@hotmail.com;
#ARTIST:Vader;
#TITLETRANSLIT:;
#SUBTITLETRANSLIT:;
#ARTISTTRANSLIT:;
#CREDIT:;
#BANNER:;
#BACKGROUND:00-vader-impressions_in_blood-(advance)-2006-proofb-bg.jpg;
#LYRICSPATH:;
#CDTITLE:Nepex-Chart.bmp;
#MUSIC:04-vader-helleluyah_(god_is_dead).mp3;
#OFFSET:1.110;
#SAMPLESTART:33.540;
#SAMPLELENGTH:12.000;
#SELECTABLE:YES;
#BPMS:0.000=60.003,8.000=120.006,72.000=240.011,136.000=120.006,181.500=240.011,373.500=120.006,427.000=240.011,500.000=60.003,504.000=120.006;
#STOPS:164.500=0.500
,165.000=0.750
,402.000=0.500
,402.500=0.750
,427.000=1.750
;
#BGCHANGES:;

//---------------dance-single - ----------------
#NOTES:
     dance-single:
     :
     Medium:
     11:
     1.000,1.000,1.000,0.330,0.643:
0000
0000
0000
0000
0000
0000
0000
0000
0000
0000
0000
0000
0000
0000
0000
0000
0000
0000
0000
0020
0000
0000
0000
0000
0000
0000
0000
0000
0000
0000
0000
0000
0000
0000
0000
0000
0000
0000
0000
0000
0000
0000
0000
0000
0000
0000
0000
0000
0000
0000
0000
0000
0000
0000
0000
0000
0000
0000
0000
0000
0000
0000
0000
0000
,
0000
0000
0000
0000
0000
0000
0000
0000
0000
0000
0000
0000
0000
0000
0000
0000
0000
0000
0000
0000
0000
0000
0000
0000
0000
0000
0000
0000
0000
0000
0000
0000
0000
0000
0000
0000
0000
0000
0000
0000
0000
0000
0000
0000
0000
0000
0000
0000
0000
0000
0000
0000
0000
0000
0000
0000
0000
0000
0000
0000
0000
0000
0000
0030
,
0002
0000
0000
0000
,
0000
0000
0000
0000
0000
0000
0000
0000
0000
0000
0000
0000
0000
0000
0000
0000
0000
0000
0000
0000
0000
0000
0000
0000
0000
0000
0000
0000
0000
0000
0000
0003
,
2000
0000
0000
0000
,
0000
0000
0000
0000
0000
0000
0000
0000
0000
0000
0000
0000
0000
0000
0000
0000
0000
0000
0000
0000
0000
0000
0000
0000
0001
0100
0001
0100
0001
0100
0001
3100
,
0020
0000
0000
0000
,
0000
0000
0000
0000
0000
0000
0000
0000
0000
0000
0000
0000
0000
0000
0000
0000
0000
0000
0000
0000
0000
0000
0000
0000
0000
0000
0000
0000
0000
0000
0000
0030
,
0200
0000
0000
0000
,
0000
0000
0000
0000
0000
0000
0000
0000
0000
0000
0000
0000
0000
0000
0000
0000
0010
0000
0001
1000
0001
1000
0000
0000
0001
1000
0001
1000
0001
1000
0001
1300
,
0002
0000
0000
0000
1100
1010
0000
0000
,
1010
0000
0000
0000
0110
0000
0000
0000
0000
0000
0000
0000
0000
0000
0000
0000
0000
0000
0000
0000
0010
1000
0010
1000
0010
0000
0100
0000
0010
0000
0100
0003
,
2000
0000
0000
0000
0011
0101
0000
0000
,
0101
0000
0000
0000
0110
0000
0000
0000
0000
0000
0000
0000
0000
0000
0000
0000
0000
0000
0000
0000
0000
0000
0000
0000
0001
0100
0001
0100
0001
0100
0001
3100
,
0020
0000
0000
0000
1001
0101
0000
0000
,
0101
0000
0000
0000
1100
0000
0000
0000
0000
0000
0000
0000
0000
0000
0000
0000
1000
0001
1000
0001
1000
0001
1000
0001
1000
0001
1000
0001
1000
0000
0000
0030
,
2000
0000
0000
0000
0000
0000
0000
0000
0000
0000
0000
0000
0000
0000
0000
0000
0000
0000
0000
0000
0000
0000
0000
0000
0000
0000
0000
0000
0000
0000
0000
3000
,
0002
0100
0010
0100
0010
1000
0010
0100
0010
1000
0010
0100
0013
1000
0001
0100
0001
0010
0100
0010
0001
1000
0100
0010
1001
0000
0000
0000
1001
0000
0000
0000
,
0101
1010
0110
0101
0101
1010
0110
1001
,
0101
0011
1010
0110
1010
1100
1001
0101
,
1010
0000
0110
0000
1010
0000
0101
0000
0011
0000
1001
0000
1010
0100
0010
0100
,
0001
0100
0010
0001
0010
0100
0010
1000
0100
0010
0100
0010
1001
0000
0000
0000
,
1010
0110
0101
0011
1001
0101
1001
1010
,
0110
0101
1010
0110
1010
0101
0011
1001
,
1010
0000
0110
0000
1010
0000
0101
0000
0011
0000
1001
0000
0110
0001
1000
0001
,
0100
0010
0001
0010
0100
0010
1000
0010
0100
0010
1000
0100
0011
0000
0000
0000
,
1010
0110
0011
1001
1010
0110
1010
0101
,
0011
1001
0110
1010
0110
0101
0011
1001
,
0110
0000
1010
0000
0101
0000
1010
0000
0110
0000
0011
0000
1100
0010
0100
0010
,
0001
0010
1000
0010
0001
0010
0100
0001
0100
1000
0100
0010
1001
0000
0000
0000
,
0110
0011
1001
1010
0110
1010
0101
1001
,
0101
0011
1010
0110
1010
0110
1001
1010
,
0101
0011
1100
0110
0011
1010
0110
1001
,
0010
0100
0010
0100
0001
1000
0001
1000
0010
0100
0010
0100
0001
1000
0001
1000
,
0102
0000
1000
0000
,
1000
0000
0000
0000
0000
0000
0000
0000
1000
0010
0100
0010
1000
0100
1000
0013
,
2100
0000
0010
0000
,
0100
0000
0001
0000
0010
0000
0100
0000
0010
0000
0001
0000
0100
0000
0010
0000
0001
0010
0001
0000
0010
0000
0100
0000
0001
0000
0010
0000
0001
0000
0010
3000
,
0201
0000
0001
0000
,
1000
0000
0000
0000
0000
0000
0000
0000
0000
0000
0000
0000
0000
0000
0000
0000
0010
0000
0000
0000
0000
0000
0000
0000
0000
0000
0000
0000
0000
0000
0000
0300
,
1002
0000
0000
0000
0000
0000
0000
0000
0000
0000
0000
0000
0000
0000
0000
0000
0100
0000
0000
0000
0000
0000
0000
0000
0000
0000
0000
0000
0000
0000
0000
0003
,
2100
3000
0110
0000
0001
0000
2100
0000
0000
0000
0000
0000
0000
0000
0001
0000
,
0000
0000
0000
0100
0000
0000
0000
0001
,
0000
0000
0000
0000
0000
0000
0000
0000
0000
0000
0000
3000
0012
0000
0000
0000
0000
0000
0000
0000
0000
0000
0000
0000
0000
0000
0000
0000
0100
0000
0000
0000
,
0000
0000
0000
0000
0000
0000
0000
0000
0000
0000
0000
0003
0010
0000
1000
0000
0001
0000
0100
0000
0010
0000
0001
0000
0010
0000
0100
0000
0010
1000
0010
0000
,
0100
0000
0010
0000
1000
0001
1000
0000
0100
0000
0001
0000
0101
0000
0000
0000
1010
0000
0000
0000
0110
0000
0000
0000
0101
0000
0000
0000
0101
0000
0000
0000
,
1010
0110
1001
0101
0011
1010
0110
1010
,
1100
1001
0101
1010
0110
1010
0101
0011
,
1001
0000
1010
0100
0010
0100
0001
0100
0010
0001
0010
0100
0010
1000
0100
0010
,
0100
0010
1001
0000
0000
0000
1010
0000
0110
0000
0101
0000
0011
0000
1001
0000
,
0101
1001
1010
0110
0101
1010
0110
1010
,
0101
0011
1001
1010
0110
1010
0101
0011
,
1001
0000
0110
0001
1000
0001
0100
0010
0001
0010
0100
0010
1000
0010
0100
0010
,
1000
0100
0011
0000
0000
0000
1010
0000
0110
0000
0011
0000
1001
0000
1010
0000
,
0110
1010
0101
0011
1001
0110
1010
0110
,
0101
0011
1001
0110
1010
0101
1010
0110
,
0011
0000
1100
0010
0100
0010
0001
0010
1000
0010
0001
0010
0100
0001
0100
1000
,
0100
0010
1001
0000
0000
0000
0110
0000
0011
0000
1001
0000
1010
0000
0110
0000
,
1010
0101
1001
0101
0011
1010
0110
1010
,
0110
1001
1010
0101
0011
1100
0110
0011
,
1010
0000
0110
0000
1001
0000
0110
1000
0010
0000
0100
0000
0001
0000
0100
0000
,
0010
0000
0000
0001
0000
0000
0010
0000
0000
1000
0000
0200
0000
0300
0000
0010
0000
0000
0010
0000
0000
0010
0000
0000
,
0010
0000
0000
0010
0000
0002
0000
0003
0000
0100
0000
0000
0100
0000
0000
0100
0000
0000
0100
0000
0000
0100
0000
0000
,
0100
0100
0100
0010
1000
1000
1000
0001
,
1000
0010
0100
0010
1000
0100
0010
0001
,
0100
0000
0000
0010
0000
0000
0001
0000
0000
0010
0000
2000
0000
3000
0000
0001
0000
0000
0001
0000
0000
0001
0000
0000
,
0001
0000
0000
0001
0000
0020
0000
0030
0000
0100
0000
0000
0100
0000
0000
0100
0000
0000
0100
0000
0000
0100
0000
0000
,
0100
0000
0000
0100
0000
0000
0100
0000
0000
0100
0000
2000
0000
3000
0000
0010
0000
0000
0010
0000
0000
0010
0000
0000
,
0010
0000
0000
0000
0000
0000
0010
0000
0000
0000
0000
0000
0010
0000
0000
0000
0000
0000
0010
0000
0000
0000
2000
0000
0000
0000
3000
0000
0000
0000
0001
0000
0000
0000
0000
0000
0001
0000
0000
0000
0000
0000
0001
0000
0000
1000
0000
0000
,
0001
0000
0000
0001
0000
0000
0001
0000
0000
0001
0000
0200
0000
0300
0000
0010
0000
0000
0010
0000
0000
0010
0000
0000
,
0010
0000
0000
0010
0000
0002
0000
0003
0000
0100
0000
0000
0100
0000
0000
0100
0000
0000
0100
0000
0000
0100
0000
0000
,
0100
0100
0100
0010
1000
1000
1000
0001
,
1000
0010
0100
0010
1000
0100
0010
0001
,
0100
0000
0000
0010
0000
0000
0001
0000
0000
0010
0000
2000
0000
3000
0000
0001
0000
0000
0001
0000
0000
0001
0000
0000
,
0001
0000
0000
0001
0000
0020
0000
0030
0000
0100
0000
0000
0100
0000
0000
0100
0000
0000
0100
0000
0000
0100
0000
0000
,
0100
0000
0000
0100
0000
0000
0100
0000
0000
0100
0000
2000
0000
3000
0000
0010
0000
0000
0010
0000
0000
0010
0000
0000
,
0010
0000
0000
0010
0000
0000
0010
0000
0000
0010
0000
2000
0000
3000
0000
0001
0000
0000
0001
0000
0000
0001
0000
0000
,
0001
0000
0000
0001
0000
0000
0001
0000
0000
0001
0000
0200
0000
0300
0000
0010
0000
0000
0010
0000
0000
0010
0000
0000
,
0010
0000
0000
0000
0000
0000
0010
0000
0000
0000
0002
0000
0000
0000
0003
0000
0000
0000
0200
0000
0000
0300
0000
0000
0200
0000
0000
0300
0000
0000
0200
0000
0000
0300
0000
0000
0200
0000
0000
0300
0000
0000
0200
0000
0000
0300
0000
0000
,
0200
0300
0200
0300
0200
0300
0020
0000
1000
0000
1000
0000
1000
0000
0031
0000
,
1000
0010
0100
0010
1000
0100
0010
0001
,
0100
0000
0000
0010
0000
0000
0001
0000
0000
0010
0000
2000
0000
3000
0000
0001
0000
0000
0001
0000
0000
0001
0000
0000
,
0001
0000
0000
0001
0000
0020
0000
0030
0000
0100
0000
0000
0100
0000
0000
0100
0000
0000
0100
0000
0000
0100
0000
0000
,
0100
0000
0000
0100
0000
0000
0100
0000
0000
0100
0000
2000
0000
3000
0000
0010
0000
0000
0010
0000
0000
0010
0000
0000
,
0010
0000
0000
0000
0000
0000
0010
0000
0000
0000
0000
0000
0010
0000
0000
0000
0000
0000
0010
0000
0000
0000
2000
0000
0000
0000
3000
0000
0000
0000
0001
0000
0000
0000
0000
0000
0001
0000
0000
0000
0000
0000
0001
0000
0000
1000
0000
0000
,
0001
0000
0000
0001
0000
0000
0001
0000
0000
0001
0000
0200
0000
0300
0000
0010
0000
0000
0010
0000
0000
0010
0000
0000
,
0010
0000
0000
0010
0000
0002
0000
0003
0000
0100
0000
0000
0100
0000
0000
0100
0000
0000
0100
0000
0000
0100
0000
0000
,
0100
0100
0100
0010
1000
1000
1000
0001
,
1000
0010
0100
0010
1000
0100
0010
0001
,
0100
0000
0000
0010
0000
0000
0001
0000
0000
0010
0000
2000
0000
3000
0000
0001
0000
0000
0001
0000
0000
0001
0000
0000
,
0001
0000
0000
0001
0000
0020
0000
0030
0000
0100
0000
0000
0100
0000
0000
0100
0000
0000
0100
0000
0000
0100
0000
0000
,
0100
0000
0000
0100
0000
0000
0100
0000
0000
0100
0000
2000
0000
3000
0000
0010
0000
0000
0010
0000
0000
0010
0000
0000
,
0010
0000
0010
0000
0010
0000
0010
0000
0010
0100
0001
0000
0001
0000
0001
0000
,
0001
0001
0001
0002
0000
0000
0000
0100
,
0000
0000
0000
0000
0000
0000
1000
0000
0000
0000
0000
0000
0000
0000
0010
1000
,
0010
0000
0100
0000
1000
0000
0100
0000
0010
0000
1000
0003
0210
0000
0000
0000
0000
0000
0000
0000
0000
0000
0000
0000
0000
0000
0000
0000
0001
0000
0000
0000
,
0000
0000
0000
0000
0000
0000
0000
0000
0000
0000
0000
0000
1000
0000
0001
0000
0010
0000
0001
0000
1000
0000
0010
0000
0001
0000
0010
0000
1000
0001
1000
0000
,
0010
0000
0001
0000
0010
0000
1000
0000
0001
0000
1000
0300
0021
0000
0000
0000
0000
0000
0000
0000
0000
0000
0000
0000
0000
0000
0000
0000
1000
0000
0000
0000
,
0000
0000
0000
0001
0000
0000
0000
0100
,
0000
0000
0000
0000
0000
0000
0000
0000
0000
0000
0000
0030
2001
0000
0000
0000
0000
0000
0000
0000
0000
0000
0000
0000
0000
0000
0000
0000
0100
0000
0000
0000
,
0000
0000
0000
0000
0000
0000
0000
0000
0000
0000
0000
3000
0102
0000
0003
0000
0110
0000
0000
0000
1000
0000
0000
0000
0102
0000
0000
0000
0000
0000
0000
0000
,
0000
0010
0000
1000
,
0000
0000
0000
0000
0000
0000
0000
0000
0100
0000
0010
0000
0100
0000
0010
0000
1000
0000
0010
0000
0100
0000
0010
0003
1200
0000
0000
0000
0000
0000
0000
0000
,
0000
0000
0000
0000
0010
0000
0000
0000
0000
0000
0000
0000
0001
0010
1000
0010
,
1000
0000
0001
0000
0010
0000
0001
0000
1000
0010
1000
0000
0010
0000
0001
0000
0010
0000
1000
0000
0001
0000
0010
0300
2001
0000
0000
0000
0000
0000
0000
0000
,
0010
0001
0010
0100
,
0010
0000
0000
0000
0000
0000
0000
0000
0001
0000
0000
0000
0000
0000
0000
0000
0100
0000
0000
0000
0000
0000
0000
3000
0110
0000
0000
0000
0000
0000
0000
0000
,
1000
0100
0010
0100
0010
0001
0100
0010
0001
0010
0100
0010
1000
0010
0001
0010
,
0100
0010
1000
0100
0010
1000
0010
0001
0010
1000
0010
0100
1000
0010
0100
0010
,
0101
1010
0110
0101
0101
1010
0110
1001
,
0101
0011
1010
0110
1010
1100
1001
0101
,
1010
0000
0110
0000
1010
0000
0101
0000
0011
0000
1001
0000
1010
0100
0010
0100
,
0001
0100
0010
0001
0010
0100
0010
1000
0100
0010
0100
0010
1001
0000
0000
0000
,
1010
0110
0101
0011
1001
0101
1001
1010
,
0110
0101
1010
0110
1010
0101
0011
1001
,
1010
0000
0110
0000
1010
0000
0101
0000
0011
0000
1001
0000
0110
0001
1000
0001
,
0100
0010
0001
0010
0100
0010
1000
0010
0100
0010
1000
0100
0011
0000
0000
0000
,
1010
0110
0011
1001
1010
0110
1010
0101
,
0011
1001
0110
1010
0110
0101
0011
1001
,
0110
0000
1010
0000
0101
0000
1010
0000
0110
0000
0011
0000
1100
0010
0100
0010
,
0001
0010
1000
0010
0001
0010
0100
0001
0100
1000
0100
0010
1001
0000
0000
0000
,
0110
0011
1001
1010
0110
1010
0101
1001
,
0101
0011
1010
0110
1010
0110
1001
1010
,
0101
0011
1100
0110
0011
1010
0110
1001
,
0010
0100
0010
0100
0001
1000
0001
1000
0010
0100
0010
0100
0001
1000
0001
1000
,
0222
0000
0000
0000
,
0333
0000
0000
0000
;

//---------------dance-single - Copied from----------------
#NOTES:
     dance-single:
     Copied from:
     Hard:
     13:
     1.000,1.000,0.390,0.330,1.000:
0000
0000
0000
0000
0000
0000
0000
0000
0000
0000
0000
0000
0000
0000
0000
0000
0000
0000
0000
0020
0000
0000
0000
0000
0000
0000
0000
0000
0000
0000
0000
0000
0000
0000
0000
0000
0000
0000
0000
0000
0000
0000
0000
0000
0000
0000
0000
0000
0000
0000
0000
0000
0000
0000
0000
0000
0000
0000
0000
0000
0000
0000
0000
0000
,
0000
0000
0000
0000
0000
0000
0000
0000
0000
0000
0000
0000
0000
0000
0000
0000
0000
0000
0000
0000
0000
0000
0000
0000
0000
0000
0000
0000
0000
0000
0000
0000
0000
0000
0000
0000
0000
0000
0000
0000
0000
0000
0000
0000
0000
0000
0000
0000
0000
0000
0000
0000
0000
0000
0000
0000
0000
0000
0000
0000
0000
0000
0000
0030
,
0002
0000
0000
0000
0010
0000
1000
0000
0100
0000
0000
0100
1000
0000
0010
0000
,
0100
0000
0000
0000
0000
0000
0000
0000
0010
0000
0000
0000
0000
0000
0000
0000
0100
0000
0000
0000
0010
0000
0000
0000
0100
0000
0000
0000
0010
0000
0000
0003
,
2000
0000
0000
0000
0001
0000
0100
0000
0001
0000
0010
0000
0001
0000
0000
0010
,
0100
0000
0000
0000
0001
0000
0000
0000
0010
0000
0000
0000
0001
0000
0000
0000
0010
0000
0000
0000
0100
0000
0000
0000
0001
0100
0001
0100
0001
0100
0001
3100
,
0020
0000
0000
0000
0100
0000
0001
0000
1000
0000
0000
0100
0001
0000
1000
0000
,
0001
0000
0000
0000
0000
0000
0000
0000
0100
0000
0000
0000
0000
0000
0000
0000
0001
0000
0000
0000
1000
0000
0000
0000
0100
0000
0000
0000
1000
0000
0000
0030
,
0200
0000
0000
0000
0001
0000
0010
0000
0001
0000
1000
0000
0010
0000
0000
1000
,
0001
0000
0000
0000
0010
0000
0000
0000
1000
0000
0000
0000
0001
0000
0000
0000
0010
0000
0001
1000
0001
1000
0000
0000
0001
1000
0001
1000
0001
1000
0001
1300
,
0002
0000
1000
0010
1100
1010
0000
0100
,
1010
0000
0000
0000
0110
0000
0000
0000
0000
0000
0000
0000
0000
0000
0000
0000
1000
0000
0000
0000
0010
1000
0010
1000
0010
0000
0100
0000
0010
0000
0100
0003
,
2000
0000
0001
0100
0011
0101
0001
0010
,
0101
0000
0000
0000
0110
0000
0000
0000
0001
0000
0000
0000
0000
0000
0000
0000
0100
0000
0000
0000
0010
0000
0000
0000
0001
0100
0001
0100
0001
0100
0001
3100
,
0020
0000
1000
0000
1001
0101
0000
0000
,
0101
0000
0000
0000
1100
0000
0000
0000
0001
0000
0000
0000
0100
0000
0000
0000
1000
0001
1000
0001
1000
0001
1000
0001
1000
0001
1000
0001
1000
0000
0000
0030
,
2000
0000
0000
0000
0000
0000
0000
0000
0000
0000
0000
0000
0000
0000
0000
0000
0000
0000
0000
0000
0000
0000
0000
0000
0000
0000
0000
0000
0000
0000
0000
3000
,
0002
0100
0010
0100
0010
1000
0010
0100
0010
1000
0010
0100
0013
1000
0001
0100
0001
0010
0100
0010
0001
1000
0100
0010
1001
0000
0000
0000
1001
0000
0000
0000
,
0010
0010
0010
0010
0010
0010
0010
0010
0010
0010
0010
0010
0010
0010
0010
0010
,
0010
0010
0010
0010
0010
0010
0010
0010
0100
0100
0100
0100
0100
0100
0100
0100
,
1000
1000
1000
1000
1000
1000
1000
1000
1000
1000
1000
1000
0010
0100
0010
0100
,
0001
0100
0010
0001
0010
0100
0010
1000
0100
0010
0100
0010
1001
0000
0000
0000
,
0100
0100
0100
0100
0100
0100
0100
0100
0100
0100
0100
0100
0100
0100
0100
0100
,
1000
1000
1000
1000
1000
1000
1000
1000
0001
0001
0001
0001
0001
0001
0001
0001
,
0010
0010
0010
0010
0010
0010
0010
0010
0010
0010
0010
0010
0010
0001
1000
0001
,
0100
0010
0001
0010
0100
0010
1000
0010
0100
0010
1000
0100
0011
0000
0000
0000
,
1000
1000
1000
1000
1000
1000
1000
1000
1000
1000
1000
1000
1000
1000
1000
1000
,
1000
1000
1000
1000
1000
1000
1000
1000
0001
0001
0001
0001
0001
0001
0001
0001
,
0100
0100
0100
0100
0100
0100
0100
0100
0100
0100
0100
0100
0100
0010
0100
0010
,
0001
0010
1000
0010
0001
0010
0100
0001
0100
1000
0100
0010
1001
0000
0000
0000
,
0001
0001
0001
0001
0001
0001
0001
0001
0001
0001
0001
0001
0001
0001
0001
0001
,
0010
0010
0010
0010
0010
0010
0010
0010
1000
1000
1000
1000
1000
1000
1000
1000
,
0010
0010
0010
0010
0010
0010
0010
0010
0010
0010
0010
0010
0010
0010
0010
0010
,
0010
0100
0010
0100
0001
1000
0001
1000
0010
0100
0010
0100
0001
1000
0001
1000
,
0102
0010
0100
0010
1100
0010
0100
1000
,
0110
0000
0010
0000
1000
0000
0100
0000
1000
0010
0100
0010
1000
0100
1000
0013
,
2100
0001
0100
0010
0011
0100
0010
0001
,
0100
0000
0001
0000
0010
0000
0100
0000
0010
0000
0001
0000
0100
0000
0010
0000
0001
0010
0001
0000
0010
0000
0100
0000
0001
0000
0010
0000
0001
0000
0010
3000
,
0201
0010
0001
0010
1001
1000
0010
0001
,
1010
0000
0000
0000
0010
0000
0000
0000
1000
0000
0000
0000
0001
0000
0000
0000
1010
0000
0000
0000
0001
0000
0000
0000
0010
0000
0000
0000
1000
0000
0000
0300
,
0012
0000
0000
0000
0100
0000
0000
0000
0010
0000
0000
0000
1000
0000
0000
0000
1100
0000
0000
0000
0010
0000
0000
0000
1000
0000
0000
0000
0010
0000
0000
0003
,
2100
3000
0110
0000
0011
0000
2100
0000
0010
0000
0100
0000
0001
0000
0110
0000
,
0001
0100
0010
0101
0010
0100
0010
0101
,
0010
0000
0000
0000
0001
0000
0000
0000
0100
0000
0000
3000
0012
0000
0000
0000
1000
0000
0000
0000
0010
0000
0000
0000
1000
0000
0000
0000
1100
0000
0000
0000
,
0010
0000
0000
0000
0100
0000
0000
0000
1000
0000
0000
0003
0010
0000
1000
0000
0001
0000
0100
0000
0010
0000
0001
0000
0010
0000
0100
0000
0010
1000
0010
0000
,
0100
0000
0010
0000
1000
0001
1000
0000
0100
0000
0001
0000
0010
0000
0010
0000
0010
0000
0010
0000
0010
0000
0010
0000
0010
0000
0010
0000
0010
0000
0010
0000
,
0010
0010
0010
0010
0010
0010
0010
0010
0010
0010
0010
0010
0010
0010
0100
0100
,
0100
0100
0100
0100
0100
0100
1000
1000
1000
1000
1000
1000
1000
1000
1000
1000
,
1000
1000
0010
0100
0010
0100
0001
0100
0010
0001
0010
0100
0010
1000
0100
0010
,
0100
0010
1001
0000
0000
0000
0100
0100
0100
0100
0100
0100
0100
0100
0100
0100
,
0100
0100
0100
0100
0100
0100
1000
1000
1000
1000
1000
1000
1000
1000
0001
0001
,
0001
0001
0001
0001
0001
0001
0010
0010
0010
0010
0010
0010
0010
0010
0010
0010
,
0010
0010
0010
0001
1000
0001
0100
0010
0001
0010
0100
0010
1000
0010
0100
0010
,
1000
0100
0011
0000
0000
0000
1000
1000
1000
1000
1000
1000
1000
1000
1000
1000
,
1000
1000
1000
1000
1000
1000
1000
1000
1000
1000
1000
1000
1000
1000
0001
0001
,
0001
0001
0001
0001
0001
0001
0100
0100
0100
0100
0100
0100
0100
0100
0100
0100
,
0100
0100
0100
0010
0100
0010
0001
0010
1000
0010
0001
0010
0100
0001
0100
1000
,
0100
0010
1001
0000
0000
0000
0001
0001
0001
0001
0001
0001
0001
0001
0001
0001
,
0001
0001
0001
0001
0001
0001
0010
0010
0010
0010
0010
0010
0010
0010
1000
1000
,
1000
1000
1000
1000
1000
1000
0100
0100
0100
0100
0100
0100
0100
0100
0100
0100
,
0100
0100
0100
0100
0100
0100
0010
0010
0010
0010
0010
0010
0010
0010
0010
0010
,
0010
0000
0000
0010
0000
0000
0010
0000
0000
0010
0000
0000
0010
0000
0000
0010
0000
0000
1000
0000
0000
0000
0200
0000
0000
0000
0300
0000
0000
0000
0010
0000
0000
0000
0000
0000
0010
0000
0000
0000
0000
0000
0010
0000
0000
0000
0000
0000
,
0010
0000
0000
0010
0000
0002
0000
0003
0000
0100
0000
0000
0100
0000
0000
0100
0000
0000
0100
0000
0000
0100
0000
0000
,
0100
0100
0100
0010
1000
1000
1000
0001
,
1000
0010
0100
0010
1000
0100
0010
0001
,
0100
0000
0000
0010
0000
0000
0001
0000
0000
0010
0000
2000
0000
3000
0000
0001
0000
0000
0001
0000
0000
0001
0000
0000
,
0001
0000
0000
0001
0000
0020
0000
0030
0000
0100
0000
0000
0100
0000
0000
0100
0000
0000
0100
0000
0000
0100
0000
0000
,
0100
0000
0000
0100
0000
0000
0100
0000
0000
0100
0000
2000
0000
3000
0000
0010
0000
0000
0010
0000
0000
0010
0000
0000
,
0010
0000
0000
0000
0000
0000
0010
0000
0000
0000
0000
0000
0010
0000
0000
0000
0000
0000
0010
0000
0000
0000
2000
0000
0000
0000
3000
0000
0000
0000
0001
0000
0000
0000
0000
0000
0001
0000
0000
0000
0000
0000
0001
0000
0000
1000
0000
0000
,
0001
0000
0000
0001
0000
0000
0001
0000
0000
0001
0000
0200
0000
0300
0000
0010
0000
0000
0010
0000
0000
0010
0000
0000
,
0010
0000
0000
0010
0000
0002
0000
0003
0000
0100
0000
0000
0100
0000
0000
0100
0000
0000
0100
0000
0000
0100
0000
0000
,
0100
0100
0100
0010
1000
1000
1000
0001
,
1000
0010
0100
0010
1000
0100
0010
0001
,
0100
0000
0000
0010
0000
0000
0001
0000
0000
0010
0000
2000
0000
3000
0000
0001
0000
0000
0001
0000
0000
0001
0000
0000
,
0001
0000
0000
0001
0000
0020
0000
0030
0000
0100
0000
0000
0100
0000
0000
0100
0000
0000
0100
0000
0000
0100
0000
0000
,
0100
0000
0000
0100
0000
0000
0100
0000
0000
0100
0000
2000
0000
3000
0000
0010
0000
0000
0010
0000
0000
0010
0000
0000
,
0010
0000
0000
0010
0000
0000
0010
0000
0000
0010
0000
2000
0000
3000
0000
0001
0000
0000
0001
0000
0000
0001
0000
0000
,
0001
0000
0000
0001
0000
0000
0001
0000
0000
0001
0000
0200
0000
0300
0000
0010
0000
0000
0010
0000
0000
0010
0000
0000
,
0010
0000
0000
0000
0000
0000
0010
0000
0000
0000
0002
0000
0000
0000
0003
0000
0000
0000
0200
0000
0000
0300
0000
0000
0200
0000
0000
0300
0000
0000
0200
0000
0000
0300
0000
0000
0200
0000
0000
0300
0000
0000
0200
0000
0000
0300
0000
0000
,
0200
0300
0200
0300
0200
0300
0020
0000
1000
0000
1000
0000
1000
0000
0031
0000
,
1000
0010
0100
0010
1000
0100
0010
0001
,
0100
0000
0000
0010
0000
0000
0001
0000
0000
0010
0000
2000
0000
3000
0000
0001
0000
0000
0001
0000
0000
0001
0000
0000
,
0001
0000
0000
0001
0000
0020
0000
0030
0000
0100
0000
0000
0100
0000
0000
0100
0000
0000
0100
0000
0000
0100
0000
0000
,
0100
0000
0000
0100
0000
0000
0100
0000
0000
0100
0000
2000
0000
3000
0000
0010
0000
0000
0010
0000
0000
0010
0000
0000
,
0010
0000
0000
0000
0000
0000
0010
0000
0000
0000
0000
0000
0010
0000
0000
0000
0000
0000
0010
0000
0000
0000
2000
0000
0000
0000
3000
0000
0000
0000
0001
0000
0000
0000
0000
0000
0001
0000
0000
0000
0000
0000
0001
0000
0000
1000
0000
0000
,
0001
0000
0000
0001
0000
0000
0001
0000
0000
0001
0000
0200
0000
0300
0000
0010
0000
0000
0010
0000
0000
0010
0000
0000
,
0010
0000
0000
0010
0000
0002
0000
0003
0000
0100
0000
0000
0100
0000
0000
0100
0000
0000
0100
0000
0000
0100
0000
0000
,
0100
0100
0100
0010
1000
1000
1000
0001
,
1000
0010
0100
0010
1000
0100
0010
0001
,
0100
0000
0000
0010
0000
0000
0001
0000
0000
0010
0000
2000
0000
3000
0000
0001
0000
0000
0001
0000
0000
0001
0000
0000
,
0001
0000
0000
0001
0000
0020
0000
0030
0000
0100
0000
0000
0100
0000
0000
0100
0000
0000
0100
0000
0000
0100
0000
0000
,
0100
0000
0000
0100
0000
0000
0100
0000
0000
0100
0000
2000
0000
3000
0000
0010
0000
0000
0010
0000
0000
0010
0000
0000
,
0010
0000
0010
0000
0010
0000
0010
0000
0010
0100
0001
0000
0001
0000
0001
0000
,
0001
0001
0001
0002
1000
0010
1000
0110
,
0010
0000
0100
0000
0010
0000
1010
0000
0100
0000
0010
0000
0100
0000
0010
1000
,
0010
0000
0100
0000
1000
0000
0100
0000
0010
0000
1000
0003
0210
0000
0000
0000
0001
0000
0000
0000
1000
0000
0000
0000
0010
0000
0000
0000
1001
0000
0000
0000
,
0010
0000
0000
0000
1000
0000
0000
0000
0010
0000
0000
0000
1000
0000
0001
0000
0010
0000
0001
0000
1000
0000
0010
0000
0001
0000
0010
0000
1000
0001
1000
0000
,
0010
0000
0001
0000
0010
0000
1000
0000
0001
0000
1000
0300
0021
0000
0000
0000
0100
0000
0000
0000
0001
0000
0000
0000
0100
0000
0000
0000
1001
0000
0000
0000
,
0100
1000
0001
1100
0001
0100
1000
0101
,
1000
0000
0000
0000
0001
0000
0000
0000
0100
0000
0000
0030
2001
0000
0000
0000
0010
0000
0000
0000
0100
0000
0000
0000
0010
0000
0000
0000
0101
0000
0000
0000
,
0010
0000
0000
0000
0001
0000
0000
0000
0010
0000
0000
3000
0102
0000
0003
0000
0110
0000
0000
0000
1010
0000
0000
0000
0102
0000
0000
0000
1000
0000
0000
0000
,
0010
0100
1010
0100
1000
0010
1100
0010
,
1000
0000
0010
0000
0100
0010
0100
0010
1000
0010
0100
0013
1200
0000
0010
0000
,
0001
0000
1000
0000
0011
0000
1000
0000
0001
0000
1000
0000
0001
0010
1000
0010
,
1000
0000
0001
0000
0010
0000
0001
0000
1000
0010
1000
0000
0010
0000
0001
0000
0010
0000
1000
0000
0001
0000
0010
0300
2001
0000
0000
0000
0000
0000
0000
0000
,
0110
0101
0011
0110
,
0011
0000
0000
0000
0000
0000
0000
0000
0101
0000
0000
0000
0100
0000
0000
0000
0110
0000
0000
0000
0000
0000
0000
3000
0011
0000
0000
0000
0000
0000
0000
0000
,
1000
0100
0010
0100
0010
0001
0100
0010
0001
0010
0100
0010
1000
0010
0001
0010
,
0100
0010
1000
0100
0010
1000
0010
0001
0010
1000
0010
0100
1000
0010
0100
0010
,
0001
0001
0001
0001
0001
0001
0001
0001
0001
0001
0001
0001
0001
0001
0001
0001
,
0001
0001
0001
0001
0001
0001
0001
0001
1000
1000
1000
1000
1000
1000
1000
1000
,
0010
0010
0010
0010
0010
0010
0010
0010
0010
0010
0010
0010
0000
0100
0010
0100
,
0001
0100
0010
0001
0010
0100
0010
1000
0100
0010
0100
0010
1001
0000
0000
0000
,
0100
0100
0100
0100
0100
0100
0100
0100
0100
0100
0100
0100
0100
0100
0100
0100
,
1000
1000
1000
1000
1000
1000
1000
1000
0010
0010
0010
0010
0010
0010
0010
0010
,
0100
0100
0100
0100
0100
0100
0100
0100
0100
0100
0100
0100
0100
0001
1000
0001
,
0100
0010
0001
0010
0100
0010
1000
0010
0100
0010
1000
0100
0011
0000
0000
0000
,
1000
1000
1000
1000
1000
1000
1000
1000
1000
1000
1000
1000
1000
1000
1000
1000
,
1000
1000
1000
1000
1000
1000
1000
1000
0001
0001
0001
0001
0001
0001
0001
0001
,
0100
0100
0100
0100
0100
0100
0100
0100
0100
0100
0100
0100
0100
0010
0100
0010
,
0001
0010
1000
0010
0001
0010
0100
0001
0100
1000
0100
0010
1001
0000
0000
0000
,
0001
0001
0001
0001
0001
0001
0001
0001
0001
0001
0001
0001
0001
0001
0001
0001
,
0100
0100
0100
0100
0100
0100
0100
0100
1000
1000
1000
1000
1000
1000
1000
1000
,
0010
0010
0010
0010
0010
0010
0010
0010
0010
0010
0010
0010
0010
0010
0010
0010
,
0010
0100
0010
0100
0001
1000
0001
1000
0010
0100
0010
0100
0001
1000
0001
1000
,
0222
0000
0000
0000
,
0333
0000
0000
0000
;

//---------------dance-single - Copied from Copied f----------------
#NOTES:
     dance-single:
     Copied from Copied f:
     Challenge:
     15:
     1.000,1.000,1.000,0.313,1.000:
0000
0000
0000
0000
0000
0000
0000
0000
0000
0000
0000
0000
0000
0000
0000
0000
0000
0000
0000
0020
0000
0000
0000
0000
0000
0000
0000
0000
0000
0000
0000
0000
0000
0000
0000
0000
0000
0000
0000
0000
0000
0000
0000
0000
0000
0000
0000
0000
0000
0000
0000
0000
0000
0000
0000
0000
0000
0000
0000
0000
0000
0000
0000
0000
,
0000
0000
0000
0000
0000
0000
0000
0000
0000
0000
0000
0000
0000
0000
0000
0000
0000
0000
0000
0000
0000
0000
0000
0000
0000
0000
0000
0000
0000
0000
0000
0000
0000
0000
0000
0000
0000
0000
0000
0000
0000
0000
0000
0000
0000
0000
0000
0000
0000
0000
0000
0000
0000
0000
0000
0000
0000
0000
0000
0000
0000
0000
0000
0030
,
0002
0000
0000
0000
0010
0000
1000
0000
0100
0000
0000
0100
1000
0000
0010
0000
,
0100
0000
0000
0000
0000
0000
0000
0000
0010
0000
0000
0000
0000
0000
0000
0000
0100
0000
0000
0000
0010
0000
0000
0000
0100
0000
0000
0000
0010
0000
0000
0003
,
2000
0000
0000
0000
0001
0000
0100
0000
0001
0000
0010
0000
0001
0000
0000
0010
,
0100
0000
0000
0000
0001
0000
0000
0000
0010
0000
0000
0000
0001
0000
0000
0000
0010
0000
0000
0000
0100
0000
0000
0000
0001
0100
0001
0100
0001
0100
0001
3100
,
0020
0000
0000
0000
0100
0000
0001
0000
1000
0000
0000
0100
0001
0000
1000
0000
,
0001
0000
0000
0000
0000
0000
0000
0000
0100
0000
0000
0000
0000
0000
0000
0000
0001
0000
0000
0000
1000
0000
0000
0000
0100
0000
0000
0000
1000
0000
0000
0030
,
0200
0000
0000
0000
0001
0000
0010
0000
0001
0000
1000
0000
0010
0000
0000
1000
,
0001
0000
0000
0000
0010
0000
0000
0000
1000
0000
0000
0000
0001
0000
0000
0000
0010
0000
0001
1000
0001
1000
0000
0000
0001
1000
0001
1000
0001
1000
0001
1300
,
0002
0000
1000
0010
1100
1010
0000
0100
,
1010
0000
0000
0000
0110
0000
0000
0000
0000
0000
0000
0000
0000
0000
0000
0000
1000
0000
0000
0000
0010
1000
0010
1000
0010
0000
0100
0000
0010
0000
0100
0003
,
2000
0000
0001
0100
0011
0101
0001
0010
,
0101
0000
0000
0000
0110
0000
0000
0000
0001
0000
0000
0000
0000
0000
0000
0000
0100
0000
0000
0000
0010
0000
0000
0000
0001
0100
0001
0100
0001
0100
0001
3100
,
0020
0000
1000
0000
1001
0101
0000
0000
,
0101
0000
0000
0000
1100
0000
0000
0000
0001
0000
0000
0000
0100
0000
0000
0000
1000
0001
1000
0001
1000
0001
1000
0001
1000
0001
1000
0001
1000
0000
0000
0030
,
2000
0000
0000
0000
0000
0000
0000
0000
0000
0000
0000
0000
0000
0000
0000
0000
0000
0000
0000
0000
0000
0000
0000
0000
0000
0000
0000
0000
0000
0000
0000
3000
,
0002
0100
0010
0100
0010
1000
0010
0100
0010
1000
0010
0100
0013
1000
0001
0100
0001
0010
0100
0010
0001
1000
0100
0010
1001
0000
0000
0000
1001
0000
0000
0000
,
0010
1010
0010
1010
0010
1010
0010
1010
0010
1010
0010
1010
0010
1010
0010
1010
,
0010
1010
0010
1010
0010
1010
0010
1010
0100
0101
0100
0101
0100
0101
0100
0101
,
1000
1001
1000
1001
1000
1001
1000
1001
1000
1001
1000
1001
0010
1100
0010
0100
,
1001
0100
0010
0001
1010
0100
0010
1000
0101
0010
0100
0010
1001
0000
0000
0000
,
0100
0101
0100
0101
0100
0101
0100
0101
0100
0101
0100
0101
0100
0101
0100
0101
,
1000
1010
1000
1010
1000
1010
1000
1010
0001
1001
0001
1001
0001
1001
0001
1001
,
0010
0011
0010
0011
0010
0011
0010
0011
0010
0011
0010
0011
0010
0101
1000
0001
,
1100
0010
0001
0010
0101
0010
1000
0010
0101
0010
1000
0100
0011
0000
0000
0000
,
1000
1010
1000
1010
1000
1010
1000
1010
1000
1010
1000
1010
1000
1010
1000
1010
,
1000
1010
1000
1010
1000
1010
1000
1010
0001
0011
0001
0011
0001
0011
0001
0011
,
0100
1100
0100
1100
0100
1100
0100
1100
0100
1100
0100
1100
0100
0011
0100
0010
,
0101
0010
1000
0010
1001
0010
0100
0001
0110
1000
0100
0010
1001
0000
0000
0000
,
0001
0101
0001
0101
0001
0101
0001
0101
0001
0101
0001
0101
0001
0101
0001
0101
,
0010
0011
0010
0011
0010
0011
0010
0011
1000
1100
1000
1100
1000
1100
1000
1100
,
0010
1010
0010
1010
0010
1010
0010
1010
0010
1010
0010
1010
0010
1010
0010
1010
,
0010
1100
0010
0100
0011
1000
0001
1000
0011
0100
0010
0100
0011
1000
0001
1000
,
0102
0010
0100
0010
1100
0010
0100
1000
,
0110
0000
0010
0000
1000
0000
0100
0000
1000
0010
0100
0010
1000
0100
1000
0013
,
2100
0001
0100
0010
0011
0100
0010
0001
,
0100
0000
0001
0000
0010
0000
0100
0000
0010
0000
0001
0000
0100
0000
0010
0000
0001
0010
0001
0000
0010
0000
0100
0000
0001
0000
0010
0000
0001
0000
0010
3000
,
0201
0010
0001
0010
1001
1000
0010
0001
,
1010
0000
0000
0000
0010
0000
0000
0000
1000
0000
0000
0000
0001
0000
0000
0000
1010
0000
0000
0000
0001
0000
0000
0000
0010
0000
0000
0000
1000
0000
0000
0300
,
0012
0000
0000
0000
0100
0000
0000
0000
0010
0000
0000
0000
1000
0000
0000
0000
1100
0000
0000
0000
0010
0000
0000
0000
1000
0000
0000
0000
0010
0000
0000
0003
,
2100
3000
0110
0000
0011
0000
2100
0000
0010
0000
0100
0000
0001
0000
0110
0000
,
0001
0100
0010
0101
0010
0100
0010
0101
,
0010
0000
0000
0000
0001
0000
0000
0000
0100
0000
0000
3000
0012
0000
0000
0000
1000
0000
0000
0000
0010
0000
0000
0000
1000
0000
0000
0000
1100
0000
0000
0000
,
0010
0000
0000
0000
0100
0000
0000
0000
1000
0000
0000
0003
0010
0000
1000
0000
0001
0000
0100
0000
0010
0000
0001
0000
0010
0000
0100
0000
0010
1000
0010
0000
,
0100
0000
0010
0000
1000
0001
1000
0000
0100
0000
0001
0000
0010
0000
1010
0000
0010
0000
1010
0000
0010
0000
1010
0000
0010
0000
1010
0000
0010
0000
1010
0000
,
0010
1010
0010
1010
0010
1010
0010
1010
0010
1010
0010
1010
0010
1010
0100
0101
,
0100
0101
0100
0101
0100
0101
1000
1010
1000
1010
1000
1010
1000
1010
1000
1010
,
1000
1010
0010
0101
0010
0100
1001
0100
0010
0001
1010
0100
0010
1000
0101
0010
,
0100
0010
1001
0000
0000
0000
0100
0101
0100
0101
0100
0101
0100
0101
0100
0101
,
0100
0101
0100
0101
0100
0101
1000
1100
1000
1100
1000
1100
1000
1100
0001
0101
,
0001
0101
0001
0101
0001
0101
0010
0110
0010
0110
0010
0110
0010
0110
0010
0110
,
0010
0110
0010
0101
1000
0001
1100
0010
0001
0010
1100
0010
1000
0010
0101
0010
,
1000
0100
0011
0000
0000
0000
1000
1010
1000
1010
1000
1010
1000
1010
1000
1010
,
1000
1010
1000
1010
1000
1010
1000
1010
1000
1010
1000
1010
1000
1010
0001
1001
,
0001
1001
0001
1001
0001
1001
0100
0101
0100
0101
0100
0101
0100
0101
0100
0101
,
0100
0101
0100
0011
0100
0010
1001
0010
1000
0010
1001
0010
0100
0001
0110
1000
,
0100
0010
1001
0000
0000
0000
0001
1001
0001
1001
0001
1001
0001
1001
0001
1001
,
0001
1001
0001
1001
0001
1001
0010
0110
0010
0110
0010
0110
0010
0110
1000
1010
,
1000
1010
1000
1010
1000
1010
0100
0110
0100
0110
0100
0110
0100
0110
0100
0110
,
0100
0110
0100
0110
0100
0110
0010
0010
0010
0010
1010
0010
0011
0010
1010
0010
,
0011
0000
0000
0010
0000
0000
1010
0000
0000
0010
0000
0000
0011
0000
0000
0010
0000
0000
1000
0000
0000
0000
0200
0000
0000
0000
0300
0000
0000
0000
0010
0000
0000
0000
0000
0000
0010
0000
0000
0000
0000
0000
1010
0000
0000
0000
0000
0000
,
0010
0000
0000
0010
0000
0002
0000
0003
0000
1100
0000
0000
0100
0000
0000
0100
0000
0000
0100
0000
0000
0110
0000
0000
,
0100
0100
0100
0011
1000
1000
1000
0101
,
1000
0010
0100
0011
1000
0100
0010
1001
,
0100
0000
0000
1010
0000
0000
0001
0000
0000
0110
0000
2000
0000
3000
0000
0001
0000
0000
0001
0000
0000
1001
0000
0000
,
0001
0000
0000
0001
0000
0020
0000
0030
0000
0110
0000
0000
0100
0000
0000
0100
0000
0000
0100
0000
0000
0101
0000
0000
,
0100
0000
0000
0100
0000
0000
0100
0000
0000
0110
0000
2000
0000
3000
0000
0010
0000
0000
0010
0000
0000
0011
0000
0000
,
0010
0000
0010
0000
0010
0000
0011
0000
1010
0000
0110
0000
1001
0000
0001
1000
,
0001
0000
0000
0001
0000
0000
0001
0000
0000
0001
0000
0200
0000
0300
0000
0010
0000
0000
0010
0000
0000
1010
0000
0000
,
0010
0000
0000
0010
0000
0002
0000
0003
0000
1100
0000
0000
0100
0000
0000
0100
0000
0000
0100
0000
0000
0110
0000
0000
,
0100
0100
0100
0011
1000
1000
1000
0101
,
1000
0010
0100
0011
1000
0100
0010
1001
,
1100
0000
0000
0011
0000
0000
0101
0000
0000
0011
0000
2000
0000
3000
0000
0001
0000
0000
0001
0000
0000
0101
0000
0000
,
0001
0000
0000
0001
0000
0020
0000
0030
0000
1100
0000
0000
0100
0000
0000
0100
0000
0000
0100
0000
0000
0101
0000
0000
,
0100
0000
0000
0100
0000
0000
0100
0000
0000
0101
0000
2000
0000
3000
0000
0010
0000
0000
0010
0000
0000
0011
0000
0000
,
0010
0010
0010
0110
1100
0110
0101
0011
,
1001
0000
0000
0110
0000
0000
1001
0000
0000
0011
0000
0200
0000
0300
0000
0010
0000
0000
0010
0000
0000
1010
0000
0000
,
0010
0000
0000
0000
0000
0000
0010
0000
0000
0000
0002
0000
0000
0000
0003
0000
0000
0000
0210
0000
0000
0300
0000
0000
0200
0000
0000
0300
0000
0000
0200
0000
0000
0300
0000
0000
0200
0000
0000
0300
0000
0000
0210
0000
0000
0300
0000
0000
,
0200
0300
0200
0300
0200
0300
0021
0000
1000
0000
1000
0000
1000
0000
0131
0000
,
1000
0010
0100
0011
1000
0100
0010
1001
,
0100
0000
0000
1010
0000
0000
0001
0000
0000
0110
0000
2000
0000
3000
0000
0001
0000
0000
0001
0000
0000
0011
0000
0000
,
0001
0000
0000
0001
0000
0020
0000
0030
0000
1100
0000
0000
0100
0000
0000
0100
0000
0000
0100
0000
0000
0101
0000
0000
,
0100
0000
0000
0100
0000
0000
0100
0000
0000
0110
0000
2000
0000
3000
0000
0010
0000
0000
0010
0000
0000
0011
0000
0000
,
0010
0000
0010
0000
0010
0000
0110
0000
1100
0000
0101
0000
1010
0000
0001
1000
,
0001
0000
0000
0001
0000
0000
0001
0000
0000
0001
0000
0200
0000
0300
0000
0010
0000
0000
0010
0000
0000
1010
0000
0000
,
0010
0000
0000
0010
0000
0002
0000
0003
0000
1100
0000
0000
0100
0000
0000
0100
0000
0000
0100
0000
0000
0110
0000
0000
,
0100
0100
0100
0011
1000
1000
1000
0101
,
1000
0010
0100
0011
1000
0100
0010
1001
,
1100
0000
0000
0110
0000
0000
1001
0000
0000
0110
0000
2000
0000
3000
0000
0001
0000
0000
0001
0000
0000
1001
0000
0000
,
0001
0000
0000
0001
0000
0020
0000
0030
0000
1100
0000
0000
0100
0000
0000
0100
0000
0000
0100
0000
0000
0101
0000
0000
,
0100
0000
0000
0100
0000
0000
0100
0000
0000
0110
0000
2000
0000
3000
0000
0010
0000
0000
0010
0000
0000
0011
0000
0000
,
0010
0000
0010
0000
0010
0000
1010
0000
0010
0100
0001
0000
1001
0000
0110
0000
,
1001
0101
0011
0002
1000
0010
1000
0110
,
0010
0000
0100
0000
0010
0000
1010
0000
0100
0000
0010
0000
0100
0000
0010
1000
,
0010
0000
0100
0000
1000
0000
0100
0000
0010
0000
1000
0003
0210
0000
0000
0000
0001
0000
0000
0000
1000
0000
0000
0000
0010
0000
0000
0000
1001
0000
0000
0000
,
0010
0000
0000
0000
1000
0000
0000
0000
0010
0000
0000
0000
1000
0000
0001
0000
0010
0000
0001
0000
1000
0000
0010
0000
0001
0000
0010
0000
1000
0001
1000
0000
,
0010
0000
0001
0000
0010
0000
1000
0000
0001
0000
1000
0300
0021
0000
0000
0000
0100
0000
0000
0000
0001
0000
0000
0000
0100
0000
0000
0000
1001
0000
0000
0000
,
0100
1000
0001
1100
0001
0100
1000
0101
,
1000
0000
0000
0000
0001
0000
0000
0000
0100
0000
0000
0030
2001
0000
0000
0000
0010
0000
0000
0000
0100
0000
0000
0000
0010
0000
0000
0000
0101
0000
0000
0000
,
0010
0000
0000
0000
0001
0000
0000
0000
0010
0000
0000
3000
0102
0000
0003
0000
0110
0000
0000
0000
1010
0000
0000
0000
0102
0000
0000
0000
1000
0000
0000
0000
,
0010
0100
1010
0100
1000
0010
1100
0010
,
1000
0000
0010
0000
0100
0010
0100
0010
1000
0010
0100
0013
1200
0000
0010
0000
,
0001
0000
1000
0000
0011
0000
1000
0000
0001
0000
1000
0000
0001
0010
1000
0010
,
1000
0000
0001
0000
0010
0000
0001
0000
1000
0010
1000
0000
0010
0000
0001
0000
0010
0000
1000
0000
0001
0000
0010
0300
2001
0000
0000
0000
0000
0000
0000
0000
,
0110
0101
0011
0110
,
0011
0000
0000
0000
0000
0000
0000
0000
0101
0000
0000
0000
0100
0000
0000
0000
0110
0000
0000
0000
0000
0000
0000
3000
0011
0000
0000
0000
0000
0000
0000
0000
,
1000
0100
0010
0100
0010
0001
0100
0010
0001
0010
0100
0010
1000
0010
0001
0010
,
0100
0010
1000
0100
0010
1000
0010
0001
0010
1000
0010
0100
1000
0010
0100
0010
,
0001
0101
0001
0101
0001
0101
0001
0101
0001
0101
0001
0101
0001
0101
0001
0101
,
0001
0101
0001
0101
0001
0101
0001
0101
1000
1100
1000
1100
1000
1100
1000
1100
,
0010
0110
0010
0110
0010
0110
0010
0110
0010
0110
0010
0110
0000
1100
0010
0100
,
1001
0100
0010
0001
1010
0100
0010
1000
0101
0010
0100
0010
1001
0000
0000
0000
,
0100
0110
0100
0110
0100
0110
0100
0110
0100
0110
0100
0110
0100
0110
0100
0110
,
1000
1001
1000
1001
1000
1001
1000
1001
0010
0011
0010
0011
0010
0011
0010
0011
,
0100
1100
0100
1100
0100
1100
0100
1100
0100
1100
0100
1100
0100
0011
1000
0001
,
1100
0010
0001
0010
0101
0010
1000
0010
0101
0010
1000
0100
0011
0000
0000
0000
,
1000
1100
1000
1010
1000
1100
1000
1010
1000
1100
1000
1010
1000
1100
1000
1010
,
1000
1100
1000
1010
1000
1100
1000
1010
0001
0101
0001
0011
0001
0101
0001
0011
,
0100
1100
0100
0110
0100
1100
0100
0110
0100
1100
0100
0110
0100
1010
0100
0010
,
0101
0010
1000
0010
0101
0010
0100
0001
0110
1000
0100
0010
1001
0000
0000
0000
,
0001
0011
0001
0011
0001
0011
0001
0011
0001
0011
0001
0011
0001
0011
0001
0011
,
0100
0110
0100
0110
0100
0110
0100
0110
1000
1001
1000
1001
1000
1001
1000
1001
,
0010
0011
0010
0011
0010
0011
0010
0011
0010
0011
0010
0011
0010
0011
0010
0011
,
0010
0101
0010
0100
0001
1000
0001
1000
0010
0100
0010
0100
0001
1000
0001
1000
,
0222
0000
0000
0000
,
0333
0000
0000
0000
;

//---------------dance-single - Copied from----------------
#NOTES:
     dance-single:
     Copied from:
     Easy:
     10:
     0.749,0.900,0.330,0.209,0.363:  // measure 1
0000
0000
0000
0000
0000
0000
0000
0000
0000
0000
0000
0000
0000
0000
0000
0000
0000
0000
0000
0020
0000
0000
0000
0000
0000
0000
0000
0000
0000
0000
0000
0000
0000
0000
0000
0000
0000
0000
0000
0000
0000
0000
0000
0000
0000
0000
0000
0000
0000
0000
0000
0000
0000
0000
0000
0000
0000
0000
0000
0000
0000
0000
0000
0000
,  // measure 2
0000
0000
0000
0000
0000
0000
0000
0000
0000
0000
0000
0000
0000
0000
0000
0000
0000
0000
0000
0000
0000
0000
0000
0000
0000
0000
0000
0000
0000
0000
0000
0000
0000
0000
0000
0000
0000
0000
0000
0000
0000
0000
0000
0000
0000
0000
0000
0000
0000
0000
0000
0000
0000
0000
0000
0000
0000
0000
0000
0000
0000
0000
0000
0030
,  // measure 3
0001
0000
0000
0000
,  // measure 4
0000
0000
0000
0000
,  // measure 5
1000
0000
0000
0000
,  // measure 6
0000
0000
0000
0000
0000
0000
0000
0000
0000
0000
0000
0000
0000
0000
0000
0000
0000
0000
0000
0000
0000
0000
0000
0000
0001
0100
0001
0100
0001
0100
0001
0100
,  // measure 7
0010
0000
0000
0000
,  // measure 8
0000
0000
0000
0000
,  // measure 9
0100
0000
0000
0000
,  // measure 10
0000
0000
0000
0000
0000
0000
0000
0000
0000
0000
0000
0000
0000
0000
0000
0000
0010
0000
0001
1000
0001
1000
0000
0000
0001
1000
0001
1000
0001
1000
0001
1000
,  // measure 11
0001
0000
0000
0000
1100
1010
0000
0000
,  // measure 12
1010
0000
0000
0000
0110
0000
0000
0000
0000
0000
0000
0000
0000
0000
0000
0000
0000
0000
0000
0000
0010
1000
0010
1000
0010
0000
0100
0000
0010
0000
0100
0000
,  // measure 13
1000
0000
0000
0000
0011
0101
0000
0000
,  // measure 14
0101
0000
0000
0000
0110
0000
0000
0000
0000
0000
0000
0000
0000
0000
0000
0000
0000
0000
0000
0000
0000
0000
0000
0000
0001
0100
0001
0100
0001
0100
0001
0100
,  // measure 15
0010
0000
0000
0000
1001
0101
0000
0000
,  // measure 16
0101
0000
0000
0000
1100
0000
0000
0000
0000
0000
0000
0000
0000
0000
0000
0000
1000
0001
1000
0001
1000
0001
1000
0001
1000
0001
1000
0001
1000
0000
0000
0000
,  // measure 17
1000
0000
0000
0000
,  // measure 18
0001
0100
0010
0000
0100
0000
0010
0100
1000
0000
0010
0000
1000
0001
0100
0000
0010
0000
0100
0010
1000
0000
0100
0000
1001
0000
0000
0000
1001
0000
0000
0000
,  // measure 19
0010
0100
0010
1000
0010
0100
0010
0001
,  // measure 20
0010
0100
0001
0010
0100
0010
0001
1000
,  // measure 21
0100
0010
0100
1000
0010
0100
0010
1000
,  // measure 22
0011
0110
1001
0101
,  // measure 23
0010
1000
0100
0010
0100
0010
0001
0100
,  // measure 24
0010
0001
0010
0100
0010
1000
0010
0001
,  // measure 25
0010
0100
0001
0100
0010
1000
0010
0100
,  // measure 26
0011
1010
0110
1001
,  // measure 27
1000
0010
0100
0001
1000
0010
0100
0001
,  // measure 28
1000
0001
0100
0010
0001
0010
1000
0010
,  // measure 29
0100
0001
0010
0100
0010
0001
0100
0010
,  // measure 30
1001
0101
1010
1001
,  // measure 31
0001
0100
0001
0010
0100
0010
0001
0100
,  // measure 32
0010
0100
0010
0001
0010
1000
0010
0100
,  // measure 33
0001
1000
0001
0100
0010
1000
0010
0100
,  // measure 34
0010
1000
0001
0100
0010
1000
0001
0100
,  // measure 35
0010
0000
1000
0000
,  // measure 36
1000
0000
0000
0000
0000
0000
0000
0000
1000
0010
0100
0010
1000
0100
1000
0010
,  // measure 37
1000
0000
0010
0000
,  // measure 38
0100
0000
0001
0000
0010
0000
0100
0000
0010
0000
0001
0000
0100
0000
0010
0000
0001
0010
0001
0000
0010
0000
0100
0000
0001
0000
0010
0000
0001
0000
0010
0000
,  // measure 39
0100
0000
0001
0000
,  // measure 40
1000
0000
0010
0000
,  // measure 41
1000
0000
0100
0000
,  // measure 42
1100
0110
1001
1100
0000
0000
0000
0001
,  // measure 43
0000
0000
0000
0100
0000
0000
0000
0001
,  // measure 44
0000
0000
0000
0001
0000
0000
0000
0100
,  // measure 45
0000
0000
0000
0000
0000
0000
0000
0000
0000
0000
0000
0000
0010
0000
1000
0000
0001
0000
0100
0000
0010
0000
0001
0000
0010
0000
0100
0000
0010
1000
0010
0000
,  // measure 46
0100
0000
0010
0000
1000
0001
1000
0000
0100
0000
0001
0000
1000
0000
0000
0000
0010
0000
0000
0000
0100
0000
0000
0000
0001
0000
0000
0000
1000
0000
0000
0000
,  // measure 47
0001
0100
0010
0001
0010
1000
0010
0100
,  // measure 48
1000
0100
0010
1000
0100
0010
1000
0010
,  // measure 49
0100
0010
1000
0101
0000
1010
0000
0110
,  // measure 50
0000
0101
0000
0010
0100
0010
1000
0001
,  // measure 51
0100
0001
0010
0100
0010
0100
1000
0010
,  // measure 52
0100
0010
1000
0001
0100
0010
0100
0010
,  // measure 53
1000
0100
0010
0101
0000
1010
0000
0011
,  // measure 54
0000
0110
0000
0001
0100
0001
0100
0010
,  // measure 55
0100
0010
1000
0010
0100
0010
0001
0010
,  // measure 56
0100
0001
0010
0100
1000
0100
0010
0100
,  // measure 57
0010
0100
0001
1010
0000
0110
0000
0101
,  // measure 58
0000
1001
0000
0100
0010
0100
0010
1000
,  // measure 59
0001
0100
0010
0001
0010
1000
0010
0001
,  // measure 60
0010
0100
0001
0100
1000
0100
0001
0100
,  // measure 61
0010
0000
1000
0000
0100
0000
0010
1000
0010
0000
0100
0000
0001
0000
0100
0000
,  // measure 62
0010
0000
0000
0001
0000
0000
0010
0000
0000
1000
0000
0200
0000
0300
0000
0010
0000
0000
0010
0000
0000
0010
0000
0000
,  // measure 63
0010
0000
0000
0010
0000
0002
0000
0003
0000
0100
0000
0000
0100
0000
0000
0100
0000
0000
0100
0000
0000
0100
0000
0000
,  // measure 64
0100
0100
0100
0010
1000
1000
1000
0000
,  // measure 65
1000
0000
0100
0010
1000
0100
0010
0001
,  // measure 66
0100
0000
0000
0010
0000
0000
0001
0000
0000
0010
0000
2000
0000
3000
0000
0001
0000
0000
0001
0000
0000
0001
0000
0000
,  // measure 67
0001
0000
0000
0001
0000
0020
0000
0030
0000
0100
0000
0000
0100
0000
0000
0100
0000
0000
0100
0000
0000
0100
0000
0000
,  // measure 68
0100
0000
0000
0100
0000
0000
0100
0000
0000
0100
0000
2000
0000
3000
0000
0010
0000
0000
0010
0000
0000
0010
0000
0000
,  // measure 69
0010
0000
0000
0010
0000
0000
0010
0000
0000
0010
0000
2000
0000
3000
0000
0001
0000
0000
0001
0000
0000
0001
0000
0000
,  // measure 70
0001
0000
0000
0001
0000
0000
0001
0000
0000
0001
0000
0200
0000
0300
0000
0010
0000
0000
0010
0000
0000
0010
0000
0000
,  // measure 71
0010
0000
0000
0010
0000
0002
0000
0003
0000
0100
0000
0000
0100
0000
0000
0100
0000
0000
0100
0000
0000
0100
0000
0000
,  // measure 72
0100
0100
0100
0010
1000
1000
1000
0000
,  // measure 73
0001
0000
0100
0010
1000
0100
0010
0001
,  // measure 74
0100
0000
0000
0010
0000
0000
0001
0000
0000
0010
0000
2000
0000
3000
0000
0001
0000
0000
0001
0000
0000
0001
0000
0000
,  // measure 75
0001
0000
0000
0001
0000
0020
0000
0030
0000
0100
0000
0000
0100
0000
0000
0100
0000
0000
0100
0000
0000
0100
0000
0000
,  // measure 76
0100
0000
0000
0100
0000
0000
0100
0000
0000
0100
0000
2000
0000
3000
0000
0010
0000
0000
0010
0000
0000
0010
0000
0000
,  // measure 77
0010
0000
0000
0010
0000
0000
0010
0000
0000
0010
0000
2000
0000
3000
0000
0001
0000
0000
0001
0000
0000
0001
0000
0000
,  // measure 78
0001
0000
0000
0001
0000
0000
0001
0000
0000
0001
0000
0200
0000
0300
0000
0010
0000
0000
0010
0000
0000
0010
0000
0000
,  // measure 79
0010
0000
0000
0000
0000
0000
0010
0000
0000
0000
0002
0000
0000
0000
0003
0000
0000
0000
0200
0000
0000
0300
0000
0000
0200
0000
0000
0300
0000
0000
0200
0000
0000
0300
0000
0000
0200
0000
0000
0300
0000
0000
0200
0000
0000
0300
0000
0000
,  // measure 80
0200
0300
0200
0300
0200
0300
0020
0000
1000
0000
1000
0000
1000
0000
0030
0000
,  // measure 81
1000
0000
0001
0010
1000
0100
0010
0001
,  // measure 82
0100
0000
0000
0010
0000
0000
0001
0000
0000
0010
0000
2000
0000
3000
0000
0001
0000
0000
0001
0000
0000
0001
0000
0000
,  // measure 83
0001
0000
0000
0001
0000
0020
0000
0030
0000
0100
0000
0000
0100
0000
0000
0100
0000
0000
0100
0000
0000
0100
0000
0000
,  // measure 84
0100
0000
0000
0100
0000
0000
0100
0000
0000
0100
0000
2000
0000
3000
0000
0010
0000
0000
0010
0000
0000
0010
0000
0000
,  // measure 85
0010
0000
0000
0010
0000
0000
0010
0000
0000
0010
0000
2000
0000
3000
0000
0001
0000
0000
0001
0000
0000
0001
0000
0000
,  // measure 86
0001
0000
0000
0001
0000
0000
0001
0000
0000
0001
0000
0200
0000
0300
0000
0010
0000
0000
0010
0000
0000
0010
0000
0000
,  // measure 87
0010
0000
0000
0010
0000
0002
0000
0003
0000
0100
0000
0000
0100
0000
0000
0100
0000
0000
0100
0000
0000
0100
0000
0000
,  // measure 88
0100
0100
0100
0010
1000
1000
1000
0000
,  // measure 89
0001
0000
1000
0010
1000
0100
0010
0001
,  // measure 90
0100
0000
0000
0010
0000
0000
0001
0000
0000
0010
0000
2000
0000
3000
0000
0001
0000
0000
0001
0000
0000
0001
0000
0000
,  // measure 91
0001
0000
0000
0001
0000
0020
0000
0030
0000
0100
0000
0000
0100
0000
0000
0100
0000
0000
0100
0000
0000
0100
0000
0000
,  // measure 92
0100
0000
0000
0100
0000
0000
0100
0000
0000
0100
0000
2000
0000
3000
0000
0010
0000
0000
0010
0000
0000
0010
0000
0000
,  // measure 93
0010
0000
0000
0010
0000
0000
0010
0000
0000
0010
0000
0200
0000
0300
0000
0001
0000
0000
0001
0000
0000
0001
0000
0000
,  // measure 94
0001
0001
0001
0001
0000
0000
0000
0100
,  // measure 95
0000
0000
0000
0000
0000
0000
1000
0000
0000
0000
0000
0000
0000
0000
0010
1000
,  // measure 96
0010
0100
1000
0100
0010
1000
0010
0000
0000
0000
0000
0000
0000
0000
0001
0000
,  // measure 97
0000
0000
0000
0000
0000
0000
0000
0000
0000
0000
0000
0000
1000
0000
0001
0000
0010
0000
0001
0000
1000
0000
0010
0000
0001
0000
0010
0000
1000
0001
1000
0000
,  // measure 98
0010
0001
0010
1000
0001
1000
0010
0000
0000
0000
0000
0000
0000
0000
1000
0000
,  // measure 99
0000
0000
0000
0001
0000
0000
0000
0100
,  // measure 100
0000
0000
0000
1001
0000
0000
0000
0100
,  // measure 101
0000
0000
0000
0000
0000
0000
0102
0003
0110
0000
1000
0000
0101
0000
0000
0000
,  // measure 102
0000
0010
0000
1000
,  // measure 103
0000
0000
0000
0000
0100
0010
0100
0010
1000
0010
0100
0010
1000
0000
0000
0000
,  // measure 104
0000
0000
0000
0000
0010
0000
0000
0000
0000
0000
0000
0000
0001
0010
1000
0010
,  // measure 105
1000
0000
0001
0000
0010
0000
0001
0000
1000
0010
1000
0000
0010
0000
0001
0000
0010
0000
1000
0000
0001
0000
0010
0000
0001
0000
0000
0000
0000
0000
0000
0000
,  // measure 106
0010
0001
0010
0100
,  // measure 107
0010
0001
0100
0110
,  // measure 108
0001
0100
0001
0000
0100
0000
0010
0000
1000
0001
1000
0000
0001
0000
0100
0000
,  // measure 109
0010
1000
0010
0000
0100
0000
0001
0000
0100
0001
0100
0000
0010
0000
1000
0000
,  // measure 110
0001
0100
0001
0100
0010
0100
0010
1000
,  // measure 111
0100
0010
0100
1000
0001
0100
0001
0100
,  // measure 112
0001
0010
0001
0100
0010
0001
0010
1000
,  // measure 113
0101
1010
0101
1001
,  // measure 114
0100
0010
0001
0100
0010
0001
0010
1000
,  // measure 115
0010
1000
0100
0010
1000
0010
0001
0100
,  // measure 116
0010
0001
0010
1000
0010
0100
1000
0100
,  // measure 117
0011
1010
0110
0011
,  // measure 118
1000
0001
0100
0001
1000
0010
0100
0010
,  // measure 119
0001
0010
0100
0010
0100
0001
0100
1000
,  // measure 120
0100
0010
1000
0010
0001
0100
1000
0100
,  // measure 121
0011
1010
0101
1001
,  // measure 122
0010
0100
0001
1000
0100
0010
0100
1000
,  // measure 123
0001
0100
0010
0001
0010
0100
0010
0001
,  // measure 124
0010
0001
0010
1000
0010
0100
0001
1000
,  // measure 125
0010
0100
0010
0100
0001
1000
0001
1000
0010
0100
0010
0100
0001
1000
0001
1000
,  // measure 126
0222
0000
0000
0000
,  // measure 127
0333
0000
0000
0000
;
